Skip to main content

Dumpstaphunk Live at Seaside Park on 2014-08-02


Topics GOTV 2014


*** This is a 24 bit recording, not intended for CD Burning ***

Dumpstaphunk
2014-08-02
Gathering of the Vibes
Green Vibes Styage
Seaside Park
Bridgeport, CT

Busman BSC1(k3-Hypers) > R44 (24/48)
SDHC Card > Sound Forge Pro 10.0 (fades, Normalize, resample iZotope 64-Bit SRC, dither iZotope MBIT+ Dither) > CD Wav (tracking) > TLH > Flac (level 8)
DFC at corner of FOH/DIN/8' ft. high
Tags added in Foobar2000

Taped and Transferred by Brian V.

01. Intro
02. Dancin' to the Truth
03. Blueswave
04. Put It in the Dumpsta
05. If I'm In Luck I Might Get Picked Up
06. Reality of the Situation
07. I Wish You Would $
08. Meanwhile %
09. Water
10. band intros
11. Lt. Dan >
12. Money maker >
13. Vivrant Thing
14. Ramble On
15. Outro


Collection Dumpstaphunk
Band/Artist Dumpstaphunk
Venue Seaside Park
Location Bridgeport, CT

Source Busman BSC1(k3-Hypers) > R44 (24/48)
Lineage SDHC Card > Sound Forge Pro 10.0 (fades, Normalize, resample iZotope 64-Bit SRC, dither iZotope MBIT+ Dither) > CD Wav (tracking) > TLH > Flac (level 8)
Taped by Brian V.
Transferred by Brian V.

Notes

$ with James Casey and Igmar Thomas on horns
% with Stanley Jordan on guitar

***Support Bands That Allow Taping/Trading***

shntool output
length expanded size cdr WAVE problems fmt ratio filename
0:53.24 9405692 B --- -- ---xx flac 0.4070 dumstaphunk2014-08-02s1t01.flac
6:55.01 73208396 B --- -- ---xx flac 0.5373 dumstaphunk2014-08-02s1t02.flac
5:34.60 59058764 B --- -- ---xx flac 0.5595 dumstaphunk2014-08-02s1t03.flac
5:04.34 53705612 B --- -- ---xx flac 0.5607 dumstaphunk2014-08-02s1t04.flac
6:23.11 67587116 B --- -- ---xx flac 0.6209 dumstaphunk2014-08-02s1t05.flac
4:07.71 43737836 B --- -- ---xx flac 0.5858 dumstaphunk2014-08-02s1t06.flac
6:42.04 70922252 B --- -- ---xx flac 0.5791 dumstaphunk2014-08-02s1t07.flac
11:52.59 125735612 B --- -- ---xx flac 0.5970 dumstaphunk2014-08-02s1t08.flac
6:09.26 65152796 B --- -- ---xx flac 0.6136 dumstaphunk2014-08-02s1t09.flac
1:04.04 11299052 B --- -- ---xx flac 0.4847 dumstaphunk2014-08-02s1t10.flac
7:43.34 81753212 B --- -- ---xx flac 0.6093 dumstaphunk2014-08-02s1t11.flac
5:22.19 56845532 B --- -- ---xx flac 0.6589 dumstaphunk2014-08-02s1t12.flac
1:48.49 19166492 B --- -- ---xx flac 0.6362 dumstaphunk2014-08-02s1t13.flac
4:56.66 52369676 B --- -- ---xx flac 0.6646 dumstaphunk2014-08-02s1t14.flac
1:19.37 14022668 B --- -- ---xx flac 0.4774 dumstaphunk2014-08-02s1t15.flac
75:57.49 803970708 B 0.5926 (15 files)

Reviews

There are no reviews yet. Be the first one to write a review.
PEOPLE ALSO FOUND
Dumpstaphunk
by Dumpstaphunk
187
0
1
( 1 reviews )
Source: Busman BSC1(k3-Hypers) > R44 (24/48)
Dumpstaphunk
by Dumpstaphunk
79
0
0
Source: Busman BSC1(k3-Hypers) > R44 (24/48)
Community Audio
by Ready Set Flo
100
0
1
( 1 reviews )
Community Audio
by Cosmodrome
26
0
0
Source: BSC1(hypers) > FR-2LE [BA TMod] (24/48)
The Jauntee
by The Jauntee
322
1
1
( 1 reviews )
Source: Oktava mk012 > V3 Digital + AKG c214 > R44 (24/96)
Richard James And The Name Changers
by Richard James And The Name Changers
36
0
0
Source: DPA 4011 > V3 Digital + SBD > R44 (24/96)
People with Instruments
by People with Instruments
42
0
0
Source: AKG c214 + SBD (mono) > R44 (24/48)
The Equalites
by The Equalites
13
0
0
Source: AKG c214 > R44 (24/48)
Timbre Coup
by Timbre Coup
72
0
0
Source: DPA 4011 > V3 Digital > R44 (24/48)